Toriko 01-50 (720p 8bit AAC MP4)

Toriko 01-50 (720p 8bit AAC MP4) - Toriko

All future releases will be PS3 & XBOX360 compatible. Please inform me if any of you have problems playing this on your “1080p ready” phones.

Title(s): Toriko
Video: 1280x720p
Audio: Japanese 2.0 channel AAC
Subs: ep 01-10 [A-Destiny_SGKK] – ep11-50 [A-Destiny]

Download: 720p|19.6GB

Other Post

avatar
7 Comment threads
4 Thread replies
0 Followers
 
Most reacted comment
Hottest comment thread
  Subscribe  
Notify of
Thankful
Thankful

Are you going to finish Toriko?
It shows in your queue, but not in the series list (the one where you’re crossing out projects after you complete them).
Thank you for the 1st 50. I’ve been waiting for your encodes before I finish watching the series.
No pressure or disrespect intended. I just really liked your quality encodes.

Umai
Umai

It keeps cutting out the part (one more time)
COMPATIBLE only after I updated my K-Lite Codecs Pack
PC Players (Windows Vista)
1. Windows Media Player 11.0.6002.18311
2. MediaMonkey 4.0.7.1511
Before the update, both pixelated and skipped. WMP was worse than MediaMonkey.

(Please delete previous post).

Umai
Umai

I just noticed that part of my compatibility post was cut.

>>>COMPATIBLE only after I updated my K-Lite Codecs Pack<<>>>INCOMPATIBLE<<<<
Hella Old 16gig 4th Gen iPod Nano (Model:MB909LL)

~The Picture looked beautiful on my HD Monitor, HD LCD TV, and Phone.~

OK. The end.

Umai
Umai

Final comment.
I have downloaded a couple of Deadfish encodes in the past and really liked them.
I just discovered Noob, after spending hours trying to re-encode Toriko myself.

I have downloaded both batches.
Noob
Pro: better audio (192 v. 128 Kbps)
Con: Hasn’t finished encoding the series.
Con: Encodes slightly larger than Deadfish. (I’m trying to save all my DVDs to hard drives, I was kind of hoping to skimp a bit on the size. I want to keep both the R1 and the fansub for this series, because of the TL Notes other cool touches by Anime-Destiny.)

Deadfish
Pro: Prior good experiences with their encodes.
Pro: All episodes encoded.
Con: Various problems with encodes (out-of-sync audio, missing subtitles, broken 2d half, etc.) + hard to get and missing version 2s.
Since I’m so grateful to anyone who takes to time to fansub or encode to share with us, I hate to complain about anyone’s encodes.
After weighing the pros and cons of each, I prefer Noob. I hope you guys do finish encoding this anime.

I also hope Funimation finished too, so they can take my money for dual audio Toriko goodness. But it looks like Funimation is not quite hungry for more, yet. :^(

Umai
Umai

More info for those who want to compare Noob to Deadfish (the other mp4 offer out there).

—————————————————————————————————–
MediaInfo episode 1 The OnePiece Crossover Special
—————————————————————————————————–
———————
[Noob]:
———————

General
Complete name :[NoobSubs] Toriko 01 (720p 8bit AAC).mp4
Format : MPEG-4
Format profile : Base Media
Codec ID : isom
File size : 784 MiB
Duration : 47mn 4s
Overall bit rate mode : Variable
Overall bit rate : 2 327 Kbps
Movie name : [NoobSubs] Toriko 01 (720p 8bit AAC)
Album : Toriko
Track name/Position : 1
Track name/Total : 50
Performer : Subs: [A-Destiny_SGKK]
Encoded date : UTC 2013-11-30 16:37:44
Tagged date : UTC 2013-11-30 22:12:09
replaygain_track_gain : -1.20 dB
replaygain_track_minmax : 91,183
replaygain_track_peak : 1.190000
replaygain_undo : -1,-1

Video
ID : 1
Format : AVC
Format/Info : Advanced Video Codec
Format profile : [email protected]
Format settings, CABAC : Yes
Format settings, ReFrames : 6 frames
Codec ID : avc1
Codec ID/Info : Advanced Video Coding
Duration : 47mn 4s
Bit rate : 2 131 Kbps
Maximum bit rate : 9 818 Kbps
Width : 1 280 pixels
Height : 720 pixels
Display aspect ratio : 16:9
Frame rate mode : Constant
Frame rate : 23.976 fps
Color space : YUV
Chroma subsampling : 4:2:0
Bit depth : 8 bits
Scan type : Progressive
Bits/(Pixel*Frame) : 0.096
Stream size : 718 MiB (92%)
Writing library : x264 core 130 r2273 b3065e6
Encoding settings : cabac=1 / ref=6 / deblock=1:1:1 / analyse=0x3:0x133 / me=umh / subme=10 / psy=1 / psy_rd=0.40:0.00 / mixed_ref=1 / me_range=24 / chroma_me=1 / trellis=2 / 8x8dct=1 / cqm=0 / deadzone=21,11 / fast_pskip=1 / chroma_qp_offset=-2 / threads=12 / lookahead_threads=2 / sliced_threads=0 / nr=0 / decimate=1 / interlaced=0 / bluray_compat=0 / constrained_intra=0 / bframes=8 / b_pyramid=2 / b_adapt=2 / b_bias=0 / direct=3 / weightb=1 / open_gop=0 / weightp=2 / keyint=250 / keyint_min=23 / scenecut=40 / intra_refresh=0 / rc_lookahead=60 / rc=crf / mbtree=1 / crf=17.3 / qcomp=0.60 / qpmin=0 / qpmax=69 / qpstep=4 / ip_ratio=1.40 / aq=1:1.00
Encoded date : UTC 2013-11-30 16:37:44
Tagged date : UTC 2013-11-30 16:38:07

Audio
ID : 2
Format : AAC
Format/Info : Advanced Audio Codec
Format profile : LC
Codec ID : 40
Duration : 47mn 4s
Bit rate mode : Variable
Bit rate : 192 Kbps
Maximum bit rate : 230 Kbps
Channel(s) : 2 channels
Channel positions : Front: L R
Sampling rate : 48.0 KHz
Compression mode : Lossy
Stream size : 64.6 MiB (8%)
Encoded date : UTC 2013-11-30 16:38:01
Tagged date : UTC 2013-11-30 16:38:07

—————————-
[Deadfish]:
—————————-
General
Complete name : [DeadFish] Toriko – 01 [720p][MP4][AAC].mp4
Format : MPEG-4
Format profile : Base Media
Codec ID : isom
File size : 509 MiB
Duration : 47mn 4s
Overall bit rate mode : Variable
Overall bit rate : 1 513 Kbps
Encoded date : UTC 2012-06-19 09:22:12
Tagged date : UTC 2012-06-19 09:22:12

Video
ID : 1
Format : AVC
Format/Info : Advanced Video Codec
Format profile : [email protected]
Format settings, CABAC : Yes
Format settings, ReFrames : 3 frames
Codec ID : avc1
Codec ID/Info : Advanced Video Coding
Duration : 47mn 4s
Bit rate : 1 447 Kbps
Maximum bit rate : 5 741 Kbps
Width : 1 280 pixels
Height : 720 pixels
Display aspect ratio : 16:9
Frame rate mode : Constant
Frame rate : 23.976 fps
Color space : YUV
Chroma subsampling : 4:2:0
Bit depth : 8 bits
Scan type : Progressive
Bits/(Pixel*Frame) : 0.065
Stream size : 487 MiB (96%)
Title : Imported with GPAC 0.4.6-DEV (build 1)
Writing library : x264 core 79 r1342kMod e8501ef
Encoding settings : cabac=1 / ref=3 / deblock=1:0:0 / analyse=0x3:0x113 / me=umh / subme=7 / psy=1 / psy_rd=1.0:0.0 / mixed_ref=1 / me_range=12 / chroma_me=1 / trellis=2 / 8x8dct=1 / cqm=0 / deadzone=21,11 / chroma_qp_offset=-2 / threads=6 / nr=0 / decimate=1 / mbaff=0 / constrained_intra=0 / bframes=3 / b_pyramid=0 / b_adapt=2 / b_bias=0 / direct=3 / wpredb=1 / wpredp=2 / keyint=250 / keyint_min=25 / scenecut=40 / rc_lookahead=60 / rc=crf / mbtree=1 / crf=21.0000 / qcomp=0.50 / qpmin=10 / qpmax=51 / qpstep=4 / vbv_maxrate=24000 / vbv_bufsize=24000 / ip_ratio=1.10 / aq=1:1.00
Encoded date : UTC 2012-06-19 09:22:12
Tagged date : UTC 2012-06-19 09:22:24

Audio
ID : 2
Format : AAC
Format/Info : Advanced Audio Codec
Format profile : LC
Codec ID : 40
Duration : 23mn 4s
Bit rate mode : Variable
Bit rate : 128 Kbps
Maximum bit rate : 166 Kbps
Channel(s) : 2 channels
Channel positions : Front: L R
Sampling rate : 48.0 KHz
Compression mode : Lossy
Stream size : 21.1 MiB (4%)
Encoded date : UTC 2012-06-19 09:22:24
Tagged date : UTC 2012-06-19 09:22:24

>>>NOTE: The Deadfish episode 1 in the 1-61 Batch has out-of-sync audio.<<>>Other Notes<<<
—————————————————————————————————–
1. I've been trying to download [Deadfish]1v2 for the past 3 days.

2. [Deadfish] episode 12 in the 1-61 Batch has no subtitles.
I checked after noticing post on torrent feedback.
I've been trying to download 12v2 for the past 3 days.

3. [Deadfish] episode 13 in the 1-61 Batch is broken towards the end of the episode. It just goes grey.
I checked after I noticed a post by someone else on there website.
I haven't found a version 2 yet.

Umai
Umai

Compatibility results, as promised.

Once the seedbox kicked in, the download finished fast.

To check compatibility, I skipped back and forth to various points in the episode to see if it would pixelate, skip, or do that weird fast forward thing with no sound.

Episodes checked on each player: 1,2,5,43,50

COMPATIBLE with:

>>Phone

1. Samsung Galaxy Note 2
a. Played from external SD Card
b. Used
1) Built in Samsung Video Player
2) MX Player
3) Wondershare Player
4) ES Media Player

A certain person wouldn’t let me check compatibility with her iPhone, because she was in one of her moods.

>>Standalone Players (used external 4TB hard drive):

1. Patriot Box Office (PBO HD Media Player) (It’s the first generation model. I don’t know the model number.)

2. Argosy H335T Media Player

>>PC Players (Windows Vista)

1. Media Player Classic (MPC-HC)64-bit
a. Version 1.7.3
b. Version 1.7.5

2. VLC Media Player 2.1.4

3. QuickTime Player 7.7.4

4. iTunes 11.1.5.5

>>>COMPATIBLE only after I updated my K-Lite Codecs Pack<<>>>INCOMPATIBLE<<<<

Hella Old 16gig 4th Gen iPod Nano (Model:MB909LL)

~The Picture looked beautiful on my HD Monitor, HD LCD TV, and Phone.~

Umai
Umai

I’m trying to d’l this now. I’ll report back on compatibility.
Will you finish the rest of Toriko?
I tried to reencode the mini-mkv I had, but old pc+confusion over handbrake settings=fail.